Added: 11 Jan 2014 05:54:52
  Checked: Not yet
  Tracker(s): http://tracker.thepiratebay.org/announce
udp://tracker.openbittorrent.com:80
udp://tracker.publicbt.com:80
udp://tracker.ccc.de:80
udp://open.demonii.com:1337/announce
udp://9.rarbg.com:2710/announce
udp://tracker.glotorrents.com:6969/announce
udp://glotorrents.com:6969/announce
http://exodus.desync.com/announce
http://tracker.bittorrent.am/announce
  Hash: CD200ED2107761133DF301AB65414411BF83D4BA
  File(s): Malang - Full Video HD 1080p - DHOOM 3 - Amir, Katrina - {DAKU RG} {GreatPalash}.mp4 - 177653847
  Description:
[center][b]Malang - Full Video  HD 1080p UPSCALED  - DHOOM 3 - Amir, Katrina
[img]http://tollywood.net/telugu/Reviews/539636575234b1e80742ea2aa5ae7ec9.jpg[/img]
DHOOM:3. Starring Aamir Khan, Abhishek Bachchan, Katrina Kaif   Uday Chopra. 
Song: Malang
Singers: Siddharth Mahadevan   Shilpa Rao
Music: Pritam
Lyrics: Sameer Anjaan
Produced by Aditya Chopra, DHOOM:3 is written and directed by Vijay Krishna Acharya, who had also
written DHOOM   DHOOM:2. Apart from Aamir Khan, who plays the anti-hero in the film, and Katrina
Kaif, both Abhishek Bachchan and Uday Chopra will continue in their now iconic roles of Jai Dixit
and Ali.
Screenshots:-
Media Info:-
General
Complete name                            : Malang - Full Video HD 1080p - DHOOM 3 - Amir, Katrina - 
DAKU RG   GreatPalash .mp4
Format                                   : MPEG-4
Format profile                           : Base Media
Codec ID                                 : isom
File size                                : 169 MiB
Duration                                 : 5mn 37s
Overall bit rate mode                    : Variable
Overall bit rate                         : 4 216 Kbps
Writing application                      : Lavf53.31.100
Video
ID                                       : 1
Format                                   : AVC
Format/Info                              : Advanced Video Codec
Format profile                           : High@L4.1
Format settings, CABAC                   : Yes
Format settings, ReFrames                : 3 frames
Codec ID                                 : avc1
Codec ID/Info                            : Advanced Video Coding
Duration                                 : 5mn 37s
Bit rate mode                            : Variable
Bit rate                                 : 4 084 Kbps
Maximum bit rate                         : 19.2 Mbps
Width                                    : 1 920 pixels
Height                                   : 1 080 pixels
Display aspect ratio                     : 16:9
Frame rate mode                          : Constant
Frame rate                               : 24.000 fps
Standard                                 : NTSC
Color space                              : YUV
Chroma subsampling                       : 4:2:0
Bit depth                                : 8 bits
Scan type                                : Progressive
Bits/ Pixel Frame                        : 0.082
Stream size                              : 164 MiB  97  
Color primaries                          : BT.709
Transfer characteristics                 : BT.709
Matrix coefficients                      : BT.709
Audio
ID                                       : 2
Format                                   : AAC
Format/Info                              : Advanced Audio Codec
Format profile                           : LC
Codec ID                                 : 40
Duration                                 : 5mn 37s
Bit rate mode                            : Constant
Bit rate                                 : 126 Kbps
Channel s                                : 2 channels
Channel positions                        : Front: L R
Sampling rate                            : 44.1 KHz
Compression mode                         : Lossy
Stream size                              : 5.05 MiB  3  
[IMG]http://imageshack.us/a/img89/4822/zka.gif[/IMG]
[IMG]http://imageshack.us/a/img200/185/tj8.gif[/IMG]
[IMG]http://imageshack.us/a/img593/9603/ua8.gif[/IMG]
[IMG]http://imageshack.us/a/img707/5608/ysmp.png[/IMG][/b][/center]  
  Similar torrents:Harry Potter 6 And The Half Blood Prince HD 1080p Trailer 3 ----- MAAZ.torrent
Bedtime Stories (2008) [FULL-HD !!! - 1080p] BDRip.torrent
Full HD 1080p 100GB Movie Pack 1 4445304 TPB.torrent
Spiderman 3 2007 HD 1080p Legendado PT-PT by Fredini.torrent
050 Playstation 3 Wallpapers [003][HD][1080p][1920x1080][PS3][ww.torrent
050 Playstation 3 Wallpapers [002][HD][1080p][1920x1080][PS3][ww.torrent
100 Playstation 3 Wallpapers [001][HD][1080p][1920x1080][PS3][ww.torrent
AnyDVD.Y.AnyDVD.HD.6.5.0.3.Final.Spanish.Full.Por.Gamolama.torrent
Le Transporteur 3 BlueRayRip French HD 1080p 1920x1080 TheBest.torrent
[DvD-RiP] Vaaranam Aayiram [2008] XviD HD 6 Full Video Songs [Lotus Five Star DVD] @Tamilthunder.com.torrent
MADONNA - SORRY FULL HD 1080p.torrent





MyDNS.pro GeoIPDNS professional DNS hosting
Torrentz.to