Added: 08 Mar 2011 11:10:04
  Checked: 26 Apr 2012 07:35:37
  Tracker(s): http://tracker.thepiratebay.org/announce
udp://tracker.thepiratebay.org:80/announce
udp://tracker.openbittorrent.com:80/announce
udp://tracker.publicbt.com:80/announce
http://tracker.publicbt.com/announce
  Hash: 91306D998AB3FF2F28B359735F04351622FEA5F5
  File(s): House.S07E15.720p.HDTV.X264-DIMENSION-[TDO].mkv - 1172296119
  Description:
The Adjustment Bureau  2011  DVDScR XViD HD AVi SCIENCE FICTION THRILLER MOVIE.
MOVIE NAME -  The Adjustment Bureau  2011 
MOVIE TYPE- SCIENCE FICTION THRILLER
MOVIE FILE SIZE - 691 MIB
MOVIE QUALITY- DVDScR XViD  FULL HD  AVi 
MOVIE TIME SPAN - 1 HR 39 MINS
EXCELLENT SCREENSHOTS OF   39;The Adjustment Bureau  2011   39; 
OF THIS TORRETN FILE [ALL IN FULL HD] 
http://img233.imageshack.us/slideshow/webplayer.php?id=21690273.jpg
http://img233.imageshack.us/img233/6505/21690273.jpg 
http://img14.imageshack.us/img14/5714/39097953.jpg 
http://img20.imageshack.us/img20/214/64808487.jpg 
http://img88.imageshack.us/img88/5213/61147471.jpg 
http://img156.imageshack.us/img156/2601/25957420.jpg 
http://img220.imageshack.us/img220/2963/67872774.jpg 
http://img690.imageshack.us/img690/8941/87166872.jpg 
http://img402.imageshack.us/img402/5505/75961120.jpg 
http://img694.imageshack.us/img694/4849/88538092.jpg 
http://img88.imageshack.us/img88/2916/76596575.jpg 
http://img708.imageshack.us/img708/8799/17889625.jpg 
http://img200.imageshack.us/img200/9070/18199280.jpg 
http://img841.imageshack.us/img841/2055/71719937.jpg 
http://img607.imageshack.us/img607/8729/35003499.jpg 
http://img192.imageshack.us/img192/3619/81890929.jpg 
http://img96.imageshack.us/img96/5995/44505557.jpg 
http://img826.imageshack.us/img826/3640/31325848.jpg 
http://img195.imageshack.us/img195/5888/55580099.jpg 
http://img291.imageshack.us/img291/7707/26822835.jpg 
http://img694.imageshack.us/img694/7724/23805837.jpg 
http://img69.imageshack.us/img69/5073/92598396.jpg 
http://img26.imageshack.us/img26/6545/95204599.jpg 
http://img821.imageshack.us/img821/852/49872377.jpg 
http://img215.imageshack.us/img215/1820/72896174.jpg 
http://img12.imageshack.us/img12/6935/40843286.jpg 
http://img715.imageshack.us/img715/174/29300470.jpg 
http://img11.imageshack.us/img11/691/71760565.jpg 
http://img806.imageshack.us/img806/300/216m.jpg
DIRECT LINK - 
http://img233.imageshack.us/g/21690273.jpg/
VIDEO AND AUDIO DETAILS --   39;The Adjustment Bureau  2011   39;
                            FULL HD. 
Format                           : AVI [DVDScR XViD] 
Format/Info                      : Audio Video Interleave
File size                        : 699 MiB
Duration                         : 1h 39 min
Overall bit rate                 : 1 209 Kbps
Writing application              : VirtualDubMod 1.5.10.2  build 2540/release 
Writing library                  : VirtualDubMod build 2540/release
Video
ID                               : 0
Format                           : MPEG-4 Visual
Format profile                   : Advanced Simple@L5
Format settings, BVOP            : Yes
Format settings, QPel            : No
Format settings, GMC             : No warppoints
Format settings, Matrix          : Default  MPEG 
Muxing mode                      : Packed bitstream
Codec ID                         : XVID
Codec ID/Hint                    : XviD
Duration                         : 1h 39 min
Bit rate                         : 1 039 Kbps
Width                            : 704 pixels
Height                           : 264 pixels
Display aspect ratio             : 2.667
Frame rate                       : 25.000 fps
Color space                      : YUV
Chroma subsampling               : 4:2:0
Bit depth                        : 8 bits
Scan type                        : Progressive
Bits/ Pixel Frame                : 0.224
Stream size                      : 633 MiB  86  
Writing library                  : XviD 1.2.1  UTC 2008-12-04 
Audio
ID                               : 1
Format                           : MPEG Audio
Format version                   : Version 1
Format profile                   : Layer 3
Codec ID                         : 55
Codec ID/Hint                    : MP3
Duration                         : 1h 39 min
Bit rate mode                    : Constant
Bit rate                         : 160 Kbps
Channel s                        : 2 channels
Sampling rate                    : 48.0 KHz
Stream size                      : 97.4 MiB  13  
Alignment                        : Aligned on interleaves
Interleave, duration             : 40 ms  1.00 video frame 
Interleave, preload duration     : 504 ms 
STORY - 
Matt Damon and Emily Blunt headline this romantic sci-fi drama 
based on a short story by Philip K. Dick, and detailing the 
troubled love affair between a rising congressman and a 
gorgeous ballerina. The closer these two lovers get, the 
harder shadowy forces work to drive them apart by altering 
the very fabric of time and space.
Theatrical Release -- 3/4/2011  
Director         Credit
George Nolfi  Director
Cast           Credit
Matt Damon  David Norris
Emily Blunt  Elise Sellas
Anthony Mackie  Harry Mitchell
John Slattery  Richardson
Michael Kelly  Charlie Traynor
Terence Stamp  Thompson
Lisa Thoreson  Suburban Mom
Florence Kastriner  Suburban Mom
Phyllis McBryde  Suburban Neighbor 
ETC....THANKS.  
  Similar torrents:House.S05E23.720p.HDTV.X264-DIMENSION.mkv.torrent
House S05E22 720p HDTV X264-DIMENSION mkv $$$TorrentOutpost.com$$$.torrent
House.S05E21.720p.HDTV.X264-DIMENSION.mkv.torrent
House.S05E19.720p.HDTV.X264-DIMENSION.mkv.torrent
House.S05E19.720p.HDTV.X264-DIMENSION.mkv.torrent.torrent
House.S05E19.720p.HDTV.X264-DIMENSION.mkv.torrent
House.S05E17.720p.HDTV.X264-DIMENSION.mkv.torrent
House.S05E15.720p.HDTV.X264-DIMENSION.mkv.torrent
House.S05E13.720p.HDTV.X264-DIMENSION.mkv.torrent
House.S05E10.720p.HDTV.X264-DIMENSION.mkv.torrent
House.S05E09.720p.HDTV.X264-DIMENSION.mkv.torrent





MyDNS.pro GeoIPDNS professional DNS hosting
Torrentz.to