Added: 09 Feb 2011 21:48:04
  Checked: 26 Apr 2012 06:58:21
  Tracker(s): http://tracker.thepiratebay.org/announce
udp://tracker.thepiratebay.org:80/announce
udp://tracker.openbittorrent.com:80/announce
http://inferno.demonoid.me:3415/announce
  Hash: 91F782C71353D01720F04E01A514A316B78DAC03
  File(s): Black.Lightning.Il.Padrone.Del.Cielo.2009.iTALiAN.1080p.BluRay.x264-FAVELAS.mkv - 7373324697
  Description:
[img]http://static.letsbuyit.com/filer/images/uk/products/original/247/78/black-lightning-blu-ray-2010-24778838.jpeg[/img]
[b]Titolo originale[/b]:                                                             Chernaya
molniya 
[b]Data di pubblicazione[/b]: 2009
[b]Genere[/b]: fantascienza, thriller, commedia, romanticismo, avventura
[b]Direttore[/b]: Voitinskii Alexander, Dmitri Kiselev
[b]Cast[/b]: Dobrygin Gregory, Zhidkov Ivan, Verzhbitsky Victor, Sergei Garmash, Zolotukhin Valery,
Yekaterina Vilkova, Starshova Caterina, Michail Efremov, Savochkin Igor, Nazimov Andrew, Budraitis
Juozas, Ekaterina Vasilieva, Vsevolod Khovanskii-Pomerantsev, Dato Bakhtadze, Artamonof Maxim, Elena
Valyushkina, Metreveli Elmira, Tsukanov Artem, Pankratov Julia, Voitinskii Alexander, Sergei
Trofimov
[b]Paese[/b]: Russia
[b]Durata[/b]: 01:46:08
[b]Lingua[/b]: italiano
[b]Released by: www.hdtorrents.it[/b]
[b]Trama[/b]:
Uno studente dell universit     di Mosca diventa il proprietario di quella che a prima vista sembra
essere una Volga di seconda mano e ordinaria che in realt     riesce a volare. Con la sua auto non
solo potr     evitare gli ingorghi di Mosca, ma diventer     inaspettatamente il difensore della
citt    , un misterioso combattente contro il male.
[b]Qurioseta[/b]:
            La durata delle riprese era di 44 giorni di lavorazione, il primo dei quali ha avuto
luogo nel 31 dicembre 2008.
            Secondo Dmitry Tokoyakova, supervisore VFX studio Bazelevs, per cinque mesi      stato
stabilito di formazione 700 computer grafica sofisticata, 70 dei quali sono disegnati c zero.
            Dopo la consultazione con esperti nel settore dell aviazione e progettisti industriali,
animatori, fermato al  Volga-21  con lembi estraibile e ruote a scomparsa. Un totale di 100 modelli
realizzati dalla macchina. Che lei possa essere volano secondo le leggi dell aerodinamica,     
stato sviluppato da un simulatore aereo speciale.
            La maggior parte dei telai di computer grafica sono state effettuate sulla base delle
riprese video con la partecipazione di stuntman. Cos     tiro per punch auto mura fu costruito
questa pistola, sparando macchina pesa 700 kg ad una velocit     di raggio di 90 km / h.
            Mosca, girato con edifici alti, utilizzando un equipaggiamento speciale di tiro. Missing
Pieces di immagini vengono poi completate computer grafica basata su foto.
            Sopra la creazione di grafica per il film  Black Lightning  lavorato 150 persone, oltre
a specialisti Bazelevs VFX per creare scene individuali per l assunzione di 14 grandi studi di
computer grafica.
            Sistema idraulico  Gimbl  permette di simulare un volo per l auto. Allo stesso tempo,
parlare con lei come un ottovolante. Gregory Dobrygin e Victor Verzhbitsky spesi per  Gimble  pi    
di una settimana.
            Volare sopra Mosca sono stati registrati con fotocamera radio-controllati, che     
andato sulla corda tesa tra due gru enormi.
            stuntmen Volga GAZ-21  zero a 100 km / h in 6 secondi. E  stato dotato di un motore.
            Pronto  Black Lightning  ha un peso di quattro tonnellate, accelerato a 300 km / h ed   
  capace di appendere in aria.
            Il momento in cui la famiglia Dima in abito soggiorno di un lampadario in background, un
estratto dalla puntata 127  Daddy s Daughter.
            Studio riprese si sono svolte in 9 metri padiglione  Mosfilm . La sua area - 1306,4 mq
Questo      il secondo padiglione pi     grande dello studio.
            Nella scena in cui  Black Lightning  sta spingendo un ghiacciolo che cade su Nastya, l
auto laminati mazzo di rose. In questo caso le finestre e porte chiuse ed i veicoli prima e dopo la
collisione con il ghiaccio.
[b]Mediainfo:[/b]
[hide][spoiler]
General
Complete name                    :
E:Black.Lightning.Il.Padrone.Del.Cielo.2009.iTALiAN.1080p.BluRay.x264-FAVELASBlack.Lightning.Il.Padrone.Del.Cielo.2009.iTALiAN.1080p.BluRay.x264-FAVELAS.mkv
Format                           : Matroska
File size                        : 6.87 GiB
Duration                         : 1h 41mn
Overall bit rate                 : 9 659 Kbps
Encoded date                     : UTC 2010-07-20 22:52:45
Writing application              : mkvmerge v2.9.8   C est le bon   built on Aug 13 2009 12:49:06
Writing library                  : libebml v0.7.7   libmatroska v0.8.1
Video
ID                               : 1
Format                           : AVC
Format/Info                      : Advanced Video Codec
Format profile                   : High@L4.0
Format settings, CABAC           : Yes
Format settings, ReFrames        : 5 frames
Muxing mode                      : Container profile=Unknown@4.0
Codec ID                         : V MPEG4/ISO/AVC
Duration                         : 1h 41mn
Bit rate                         : 9 147 Kbps
Nominal bit rate                 : 8 966 Kbps
Width                            : 1 920 pixels
Height                           : 832 pixels
Display aspect ratio             : 2.35:1
Frame rate mode                  : Variable
Frame rate                       : 25.000 fps
Resolution                       : 8 bits
Colorimetry                      : 4:2:0
Scan type                        : Progressive
Bits/ Pixel Frame                : 0.229
Stream size                      : 6.50 GiB  95  
Title                            : Source-and1488
Writing library                  : x264 core 84 r1416 fcf70c2
Encoding settings                : cabac=1 / ref=5 / deblock=1:-3:-3 / analyse=0x3:0x133 / me=umh /
subme=10 / psy=1 / psy rd=1.0:0.0 / mixed ref=1 / me range=64 / chroma me=1 / trellis=2 / 8x8dct=1 /
cqm=0 / deadzone=12,6 / fast pskip=0 / chroma qp offset=-2 / threads=8 / sliced threads=0 / nr=0 /
decimate=0 / mbaff=0 / constrained intra=0 / bframes=12 / b pyramid=2 / b adapt=2 / b bias=0 /
direct=3 / wpredb=1 / wpredp=2 / keyint=1440 / keyint min=25 / scenecut=50 / intra refresh=0 / rc
lookahead=144 / rc=2pass / mbtree=1 / bitrate=8966 / ratetol=1.0 / qcomp=0.90 / qpmin=10 / qpmax=51
/ qpstep=4 / cplxblur=20.0 / qblur=0.5 / ip ratio=1.40 / aq=2:1.20
Language                         : Russian
Audio
ID                               : 2
Format                           : AC-3
Format/Info                      : Audio Coding 3
Format Settings ModeExtension    : CM  complete main 
Codec ID                         : A AC3
Duration                         : 1h 41mn
Bit rate mode                    : Constant
Bit rate                         : 320 Kbps
Channel s                        : 6 channels
Channel positions                : Front: L C R, Side: L R, LFE
Sampling rate                    : 48.0 KHz
Video delay                      : 2ms
Stream size                      : 233 MiB  3  
Title                            : iTALiAN-FAVELAS
Language                         : Italian
[/hide][/spoiler]  
  Similar torrents:Sept vies 2009 BDRip 1080p x264-FFG (VQ).torrent
Il Respiro Del Diavolo ITALIAN 2009-BY NERO69.avi.torrent
Mario Salieri: Football 1 - Il vizio del presidente (DVD.xvid) -.torrent
Marc Anthony Festival de Viña del Mar (En vivo) 2009.torrent
Red Cliff II 2009 BDRip X264-TLF.torrent
Watchmen-Tales.of.The.Black.Freighter[2009][ENG][AVI]-SELSYN.torrent
Windows.Vista.Black.Eternity.2009.SP1.X64-oZi.torrent
Sensation Black Belgium (2009) 2CD -NLT Release.torrent
23 Il Muro del Lamento [DVDmux][AR] avi.torrent
Va-Sensation Black Belgium 2009 Ripped by vic52121.torrent
Cirque du Soleil, Dralion (Il circo del sole).mpg.torrent





MyDNS.pro GeoIPDNS professional DNS hosting
Torrentz.to