Added: 29 Apr 2012 15:40:08
  Checked: Not yet
  Tracker(s): udp://tracker.publicbt.com:80
udp://tracker.ccc.de:80
udp://tracker.openbittorrent.com:80
http://tracker.thepiratebay.org/announce
  Hash: 8A4437421F30EABB5699C4F4D2B6D23057034E07
  File(s): Power ISO 5.1+serial+keygen.rar - 7507011
  Description:
-------------------------------------------------------------------
Please share....Dont hit and run...Seed it back at least once.
Of course, if you want to seed it back more than once, that would be ok too : 
------------------------------------------------------------------- 
QUALITY:  PERFECT 10/10
All details are here: 
Format    AVI           Language   ENGLISH  
Source    DVD PAL       Subs       NONE 
QUALITY:  PERFECT 10/10
- Video
ID                               : 0
Format                           : MPEG-4 Visual
Format profile                   : Advanced Simple@L5
Format settings, BVOP            : Yes
Format settings, QPel            : No
Format settings, GMC             : No warppoints
Format settings, Matrix          : Default  H.263 
Muxing mode                      : Packed bitstream
Codec ID                         : XVID
Codec ID/Hint                    : XviD
Bit rate                         : 1 345 Kbps
Width                            : 720 pixels
Height                           : 314 pixels
Display aspect ratio             : 2.25:1
Frame rate                       : 29.970 fps
Color space                      : YUV
Chroma subsampling               : 4:2:0
Bit depth                        : 8 bits
Scan type                        : Progressive
Compression mode                 : Lossy
Bits/ Pixel Frame                : 0.198
Stream size                      : 1.19 GiB  87  
Writing library                  : XviD 1.1.0  UTC 2005-11-22 
- Audio
ID                               : 1
Format                           : AC-3
Format/Info                      : Audio Coding 3
Mode extension                   : CM  complete main 
Codec ID                         : 2000
Bit rate mode                    : Constant
Bit rate                         : 192 Kbps
Channel s                        : 2 channels
Channel positions                : Front: L R
Sampling rate                    : 48.0 KHz
Bit depth                        : 16 bits
Compression mode                 : Lossy
Stream size                      : 175 MiB  12  
Alignment                        : Aligned on interleaves
Interleave, duration             : 33 ms  1.00 video frame 
Interleave, preload duration     : 512 ms 
  Similar torrents:Speed Connect Internet Accelerator v 7.5.1 + Full Activation Key.torrent
Stalker Clear Sky 1.5.07 Full with Faqs - Maps - Trainers.torrent
Broken Arrow Full Rip Video TS AC3-5.1 Eng / Fr Sub Eng / Span.torrent
Peter Gabriel - Growing Up full concert, mkv dd + dts 5.1.torrent
BEST COLLECTION OF POWER ISO 4.3 WINZIP 12 WINRAR 3.8 ULTRA ISO 9.3.1 ISOBUSTER 2.4- GHOST ROCKER.torrent
Camfrog Video Chat 5.1.129 Full.torrent
His Name Was Jason Full ISO DISK 1.torrent
Mac.OS.X.Retail.DVD.ISO.(Leopard.10.5.1).[FOR.WINDOWS.BURN].torrent
Stone Temple Pilots - Core DVD-A 5.1 .iso image.torrent
YouTube Download Studio 2.5.1.0 FULL - [DREW].torrent
Xilisoft ISO Maker 1.0.18 Build 1226 FULL - [DREW].torrent



 

Recent searches:
sense8 poldark Noah Boyd zetta Ubuntu a casa tutti bene sky telescope Adobe Acrobat Pro DC 2018 Portable heyzo 1418 office 2016 Fallout 4 Update v1 8 CODEX claire and lana wwe 2018 06 11 kill bill avangers infinity war 2018 metal gear rising musicbee tino idm power iso hadfield Fred Coppula Prod the crooked staircase The One Hour China Book Adobe Acrobat Pro Portable The Perfect Bride: Wedding Bells 三明治女孩的逆襲 7 anal The Disaster Artist ita the 100 season 5


MyDNS.pro GeoIPDNS professional DNS hosting
Torrentz.to