Added: 20 Mar 2011 08:16:05
  Checked: 26 Apr 2012 06:13:46
  Tracker(s): http://tracker.thepiratebay.org/announce
udp://tracker.thepiratebay.org:80/announce
udp://tracker.openbittorrent.com:80/announce
udp://tracker.publicbt.com:80/announce
http://tracker.publicbt.com/announce
http://exodus.1337x.org/announce
  Hash: 0C6472A95BC2E0F759723162C5EFB34FD534CC51
  File(s): Anal Inferno 1.m4v - 674417604
Anal Inferno 2.m4v - 479436018
Screen 1.jpg - 311008
Screen 2.jpg - 306680
Screen 3.jpg - 304240
Screen 4.jpg - 318462
Screen 5.jpg - 311785
  Description:
          Notting.Hill.1999.1080p.BRRip.x264.AC-3 5.1 -anoXmous
Format                           : Matroska
File size                        : 4.59 GiB
Duration                         : 2h 3mn
Overall bit rate                 : 5 303 Kbps
Writing application              : HandBrake 0.9.5
Writing library                  : libmkv 0.6.4.1
Video
ID                               : 1
Format                           : AVC
Format/Info                      : Advanced Video Codec
Format profile                   : High@L4.0
Format settings, CABAC           : Yes
Format settings, ReFrames        : 4 frames
Codec ID                         : V MPEG4/ISO/AVC
Duration                         : 2h 3mn
Bit rate                         : 4 658 Kbps
Width                            : 1 920 pixels
Height                           : 816 pixels
Display aspect ratio             : 2.35:1
Frame rate mode                  : Variable
Frame rate                       : 23.976 fps
Color space                      : YUV
Chroma subsampling               : 4:2:0
Bit depth                        : 8 bits
Scan type                        : Progressive
Bits/ Pixel Frame                : 0.124
Stream size                      : 3.95 GiB  86  
Writing library                  : x264 core 112
Color primaries                  : BT.709-5, BT.1361, IEC 61966-2-4, SMPTE RP177
Transfer characteristics         : BT.709-5, BT.1361
Matrix coefficients              : BT.709-5, BT.1361, IEC 61966-2-4 709, SMPTE RP177
Audio
ID                               : 2
Format                           : AC-3
Format/Info                      : Audio Coding 3
Mode extension                   : CM  complete main 
Codec ID                         : A AC3
Duration                         : 2h 3mn
Bit rate mode                    : Constant
Bit rate                         : 640 Kbps
Channel s                        : 6 channels
Channel positions                : Front: L C R, Side: L R, LFE
Sampling rate                    : 48.0 KHz
Bit depth                        : 16 bits
Compression mode                 : Lossy
Stream size                      : 567 MiB  12  
Language                         : English
Text  1
ID                               : 3
Format                           : UTF-8
Codec ID                         : S TEXT/UTF8
Codec ID/Info                    : UTF-8 Plain Text
Language                         : English
Text  2
ID                               : 4
Format                           : UTF-8
Codec ID                         : S TEXT/UTF8
Codec ID/Info                    : UTF-8 Plain Text
Language                         : Danish
Text  3
ID                               : 5
Format                           : UTF-8
Codec ID                         : S TEXT/UTF8
Codec ID/Info                    : UTF-8 Plain Text
Language                         : Finnish
Text  4
ID                               : 6
Format                           : UTF-8
Codec ID                         : S TEXT/UTF8
Codec ID/Info                    : UTF-8 Plain Text
Language                         : Icelandic
Text  5
ID                               : 7
Format                           : UTF-8
Codec ID                         : S TEXT/UTF8
Codec ID/Info                    : UTF-8 Plain Text
Language                         : Norwegian
Text  6
ID                               : 8
Format                           : UTF-8
Codec ID                         : S TEXT/UTF8
Codec ID/Info                    : UTF-8 Plain Text
Language                         : Swedish
@@@@@@@@@@@@@@@@@@@@@@@@@@@@@@@@@@@@@@@@@@@@@@@@@@@@@@@@@@@@@@@@@@@@@@@@@@@@@@@@@@
The life of a simple bookshop owner changes when he meets the most famous 
film star in the world.  
@@@@@@@@@@@@@@@@@@@@@@@@@@@@@@@@@@@@@@@@@@@@@@@@@@@@@@@@@@@@@@@@@@@@@@@@@@@@@@@@@@
  Similar torrents:Bryan Ferry amp; Roxy Music - More Than This [Best of][1995] - Zz.torrent
The Darkraver - More Than 20 Years Of His Royal Darkness 2cd 2008.torrent
Islam - More than a religion - 5 videos.torrent
Islam: More than a religion (5 videos).torrent
MILF Riders #4 [2008, DVD.xvid] - more than 3,5 hours.torrent
More Than This - The Best Of Bryan Ferry and Roxy Music (320k) YeOR.torrent
FIXED-More than Complete DC from Z to A 008 SZ-T-Supermans-FIXED.torrent
More than Complete DC from Z to A 008 SZ-T-Supermans.torrent
Laura Nyro - 1966 - More Than A New Discovery (ripped from CD) (192kbps).torrent
PartyHardcore #30 (2009, xvid) - more than 2 hours party-fucking.torrent
Latina Maid gets more than she came for.torrent



 

Recent searches:
sense8 poldark Noah Boyd zetta Ubuntu a casa tutti bene sky telescope Adobe Acrobat Pro DC 2018 Portable heyzo 1418 office 2016 Fallout 4 Update v1 8 CODEX claire and lana wwe 2018 06 11 kill bill avangers infinity war 2018 metal gear rising musicbee tino idm power iso hadfield Fred Coppula Prod the crooked staircase The One Hour China Book Adobe Acrobat Pro Portable The Perfect Bride: Wedding Bells 三明治女孩的逆襲 7 anal The Disaster Artist ita the 100 season 5


MyDNS.pro GeoIPDNS professional DNS hosting
Torrentz.to