Added: 05 Feb 2011 00:40:04
  Checked: 26 Apr 2012 07:37:18
  Tracker(s): http://tracker.thepiratebay.org/announce
udp://tracker.thepiratebay.org:80/announce
udp://tracker.openbittorrent.com:80/announce
udp://tracker.istole.it:80/announce
http://tracker.istole.it/announce
udp://denis.stalker.h3q.com:6969/announce.php
http://denis.stalker.h3q.com:6969/announce.php
udp://denis.stalker.h3q.com:6969/announce
http://denis.stalker.h3q.com:6969/announce
http://www.h33t.com:3310/announce
http://tracker.torrentbay.to:6969/announce
http://tracker.ex.ua/announce
http://tracker.bittorrent.am/announce
http://tracker.bitreactor.to:2710/announce
http://nemesis.1337x.org/announce
http://mastitorrents.com:2710/000058c96fde02fc5523bdf15e10079a/announce
http://fr33dom.h33t.com:3310/announce
http://denis.stalker.h3q.com/announce
http://9.rarbg.com:2710/announce
http://11.rarbg.com/announce
http://10.rarbg.com/announce
  Hash: AC09638AA689F74759E4BBCD2B4EE5C57B984AC3
  File(s): Best_of_the_Beatles_480p_28_09_2005_TTL.avi - 1270171574
Best_of_the_Beatles_480p_28_09_2005_TTL-info.txt - 2301
  Description:
Found this on a DVD-RW that had been misplaced. This was originally aired on 9-28-2005 on PBS. This
is from a SD broadcast. Enjoy and please share.                                                     
                                                                                                    
                                                                                                    
                                                                                            Best of
the Beatles 480p 28 09 2005 TTL.avi
Format                           : AVI
Format/Info                      : Audio Video Interleave
Format profile                   : OpenDML
File size                        : 1.18 GiB
Duration                         : 2h 8mn
Overall bit rate                 : 1 321 Kbps
Movie name                       : Best of the Beatles 28 09 2005.mpg
Director                         : created.with.SUPER C .v2010.bld.37
Writing application              : SUPER C    
Video
ID                               : 0
Format                           : MPEG-4 Visual
Format profile                   : Simple@L3
Format settings, BVOP            : No
Format settings, QPel            : No
Format settings, GMC             : No warppoints
Format settings, Matrix          : Default  H.263 
Codec ID                         : XVID
Codec ID/Hint                    : XviD
Duration                         : 2h 8mn
Bit rate                         : 1 265 Kbps
Width                            : 624 pixels
Height                           : 352 pixels
Display aspect ratio             : 16:9
Frame rate                       : 29.970 fps
Resolution                       : 8 bits
Colorimetry                      : 4:2:0
Scan type                        : Progressive
Bits/ Pixel Frame                : 0.192
Stream size                      : 1.13 GiB  96  
Writing library                  : XviD 1.1.2  UTC 2006-11-01 
Audio
ID                               : 1
Format                           : MPEG Audio
Format version                   : Version 2
Format profile                   : Layer 3
Mode                             : Joint stereo
Format Settings ModeExtension    : MS Stereo
Codec ID                         : 55
Codec ID/Hint                    : MP3
Duration                         : 1h 52mn
Bit rate mode                    : Constant
Bit rate                         : 112 Kbps
Channel s                        : 2 channels
Sampling rate                    : 22.05 KHz
Stream size                      : 45.1 MiB  4  
Alignment                        : Aligned on interleaves
Interleave, duration             : 26 ms  0.78 video frame 
Writing library                  : LAME3.98 9r     z         H     j    
  Similar torrents:THE BEST OF ' 60 and ' 70 - part 09.torrent
Just for Laughs Stand Up, Vol 1 - Best of the Uptown Comics (2005).torrent
Nirvana - Sliver the Best of the Box [2005] [Alternative] [www.pctorrent.com].torrent
The Best of the 'Foo Fighters' (1995-2005).torrent
Harry Belafonte-His Greatest Hits-The Best Of The Legends Of Music-2008-WRE.torrent
Md Rafi - The Golden Collection -33 Best of the lot -Hindi mp3 tracs.torrent
DEFF LEPPARD[BEST OF THE VIDEOS][DVDRIP][ENG]-JOCKTHERIPPER.torrent
VA-Live at HTID in the Sun 08 Best of the Rest Vol 2-8CD-2008-XTC.torrent
The best of The Mission.torrent
Rednex - The Best of the West-CD-2002-MOD.torrent
The Outfield - Big Innings (The Best Of The Outfield)[www.ilovetorrents.com].torrent





MyDNS.pro GeoIPDNS professional DNS hosting
Torrentz.to