Added: 12 Dec 2009 07:30:03
  Checked: 19 Mar 2010 05:37:39
  Tracker(s): http://tracker.thepiratebay.org/announce
udp://tracker.thepiratebay.org:80/announce
http://www.h33t.com:3310/announce
udp://tracker.openbittorrent.com:80/announce
http://tracker.openbittorrent.com/announce
http://tracker.bittorrent.am/announce
  Hash: DDA518FDE58FA2CB0F749B67A48721F373DABFCA
  File(s): screen shots\vlcsnap-00001.png - 599569
screen shots\vlcsnap-00007.png - 566008
screen shots\vlcsnap-00006.png - 504105
screen shots\vlcsnap-00002.png - 499944
screen shots\vlcsnap-00008.png - 471205
screen shots\vlcsnap-00004.png - 453022
screen shots\vlcsnap-00003.png - 410841
Bubble Gang 12.11.09 tvrip mp4.mp4 - 402949301
Bubble Gang 12.11.09 tvrip mp4.nfo - 2853
  Description:
The  Bubble Gang  is a continuing weekly TV series recorded 
and broadcast mostly in the Philippines and mostly staring 
high school teenagers. This show can be compared to  Mad TV  
that is shown in the United States. The  Bubble Gang  will spoof 
or parody anything or anybody to include commercials, film, TV...
General
Complete name                    : F:BUBBLE GANGBubble Gang 12.11.09 tvrip mp4Bubble Gang 12.11.09
tvrip mp4.mp4
Format                           : MPEG-4
Format profile                   : Base Media / Version 2
Codec ID                         : mp42
File size                        : 384 MiB
Duration                         : 47mn 53s
Overall bit rate                 : 1 122 Kbps
Encoded date                     : UTC 2009-12-11 20:44:28
Tagged date                      : UTC 2009-12-11 21:47:21
Writing application              : HandBrake 0.9.4 2009112300
Video
ID                               : 1
Format                           : AVC
Format/Info                      : Advanced Video Codec
Format profile                   : Main@L3.0
Format settings, CABAC           : Yes
Format settings, ReFrames        : 2 frames
Codec ID                         : avc1
Codec ID/Info                    : Advanced Video Coding
Duration                         : 47mn 53s
Bit rate mode                    : Variable
Bit rate                         : 989 Kbps
Width                            : 592 pixels
Height                           : 448 pixels
Display aspect ratio             : 4:3
Frame rate mode                  : Variable
Frame rate                       : 29.970 fps
Minimum frame rate               : 14.983 fps
Maximum frame rate               : 29.970 fps
Resolution                       : 24 bits
Colorimetry                      : 4:2:0
Scan type                        : Progressive
Bits/ Pixel Frame                : 0.124
Stream size                      : 339 MiB  88  
Writing library                  : x264 core 79
E
Audio
ID                               : 2
Format                           : AAC
Format/Info                      : Advanced Audio Codec
Format version                   : Version 4
Format profile                   : LC
Format settings, SBR             : No
Codec ID                         : 40
Duration                         : 47mn 53s
Bit rate mode                    : Variable
Bit rate                         : 128 Kbps
Maximum bit rate                 : 150 Kbps
Channel s                        : 2 channels
Channel positions                : L R
Sampling rate                    : 48.0 KHz
Resolution                       : 16 bits
Stream size                      : 43.8 MiB  11  
Encoded date                     : UTC 2009-12-11 20:44:28
Tagged date                      : UTC 2009-12-11 21:47:21
  Similar torrents:Bubble Gang 10 02 09 PHILIPPINES tvrip (TAGALOG) [tukmol101].torrent
PBB Double Up Episode 8 10 11 09 Philippines tvrip (Tagalog) (.torrent
Bubble Gang 10 09 09 Philippines tvrip (Tagalog) [tukmol101].torrent
PBB Double Up S03E09 10 12 09 Philippines tvrip (Tagalog) (.torrent
PBB Double Up S03E13 10 16 09 Philippines tvrip (Tagalog) (.torrent
PBB Double Up S03E12 10 15 09 Philippines tvrip (Tagalog) (.torrent
PBB Double Up S03E11 10 14 09 Philippines tvrip (Tagalog) (.torrent
PBB Double Up S03E10 10 13 09 Philippines tvrip (Tagalog) (.torrent
Banana Split 10 10 09 Philippines tvrip (Tagalog) [tukmol101].torrent
PBB Double Up Episode 7 10 10 09 Philippines tvrip (Tagalog) [tukmol101].torrent
Darna 10 09 09 Philippines tvrip (Tagalog) [tukmol101].torrent





MyDNS.pro GeoIPDNS professional DNS hosting
Torrentz.to